#TITLE:Sucks To Be You;
#SUBTITLE:;
#ARTIST:Simon & Milo;
#TITLETRANSLIT:;
#SUBTITLETRANSLIT:;
#ARTISTTRANSLIT:;
#CREDIT:;
#BANNER:;
#BACKGROUND:;
#LYRICSPATH:;
#CDTITLE:;
#MUSIC:Sucks To Be You.mp3;
#MUSICLENGTH:87.379;
#OFFSET:0.120;
#SAMPLESTART:54.637;
#SAMPLELENGTH:10.480;
#SELECTABLE:YES;
#BPMS:0.000=124.760;
#STOPS:;
#BGCHANGES:;
#FIRSTBEAT:18.000;

#LASTBEAT:180.000;

#SONGFILENAME:Songs/EXTRA/Sucks To Be You/Sucks To Be You.sm;

#HASMUSIC:1;

#HASBANNER:0;


//---------------dance-single - HEAVY----------------
#NOTES:
     dance-single:
     HEAVY:
     hard:
     8:
     0.399,0.515,0.355,0.034,0.309,210.000,31.000,3.000,0.000,0.000:


0000
0000
0000
0000
,
0000
0000
0000
0000
,
0000
0000
0000
0000
,
0000
0000
0000
0000
,
0000
0000
0010
1000
,
0100
0000
0100
0000
0100
0000
0010
0000
0000
0100
0000
0000
,
1000
0000
1000
0000
1000
0000
0001
0000
0000
0100
0000
0000
,
0010
0000
0010
0000
0010
0000
0001
0000
0000
0010
0000
0000
,
0100
0000
0100
0000
0100
0000
0000
0000
0000
0000
0000
0000
,
1010
0000
0000
0010
0000
0000
1000
0000
0000
0000
0000
0000
0100
0000
0000
0000
0100
0000
0000
0000
0100
0000
0000
0000
,
0110
0000
0000
0010
0000
0000
0100
0000
0000
0000
0000
0000
1000
0000
0000
0000
1000
0000
0000
0000
1000
0000
0000
0000
,
0010
0101
0010
1100
,
1000
0000
0100
0010
0002
0000
0003
0000
,
0101
0000
0000
0001
0000
0000
0100
0000
0000
0000
0000
0000
0010
0000
0000
0000
0010
0000
0000
0000
0010
0000
0000
0000
,
0011
0000
0000
0001
0000
0000
0010
0000
0000
0000
0000
0000
0100
0000
0000
0000
0100
0000
0000
0000
0100
0000
0000
0000
,
0010
0101
0010
1100
,
1001
1000
0100
0001
0100
0001
0100
0000
,
0001
0000
1100
0000
,
1001
1000
0100
0001
0100
0001
0100
0000
,
0100
0000
0101
0000
,
1001
1000
0100
0001
0100
0001
0100
0000
,
1000
0000
1100
0101
,
1010
0000
0000
0010
0000
0000
1000
0000
0000
0000
0000
0000
0100
0000
0000
0000
0100
0000
0000
0000
0100
0000
0000
0000
,
0110
0000
0000
0010
0000
0000
0100
0000
0000
0000
0000
0000
1000
0000
0000
0000
1000
0000
0000
0000
1000
0000
0000
0000
,
0010
0101
0010
1100
,
1000
0000
0100
0010
0002
0000
0003
0000
,
0101
0000
0000
0001
0000
0000
0100
0000
0000
0000
0000
0000
0010
0000
0000
0000
0010
0000
0000
0000
0010
0000
0000
0000
,
0011
0000
0000
0001
0000
0000
0010
0000
0000
0000
0000
0000
0100
0000
0000
0000
0100
0000
0000
0000
0100
0000
0000
0000
,
0010
0101
0010
1100
,
0001
0000
0000
0000
0000
0000
0000
0000
0000
0000
0000
0000
0010
0000
0000
0000
0000
0000
0000
0000
0001
0000
0000
0000
0000
0000
0000
0010
0000
0000
0001
0000
0000
0000
0000
0000
0100
0000
0000
0000
0000
0000
0000
0000
0000
0000
0000
0000
,
1000
0000
0000
0000
0000
0000
0000
0000
0000
0000
0000
0000
0010
0000
0000
0000
0000
0000
0000
0000
1000
0000
0000
0000
0000
0000
0000
0010
0000
0000
1000
0000
0000
0000
0000
0000
0100
0000
0000
0000
0000
0000
0000
0000
0000
0000
0000
0000
,
0001
0000
0000
0000
0000
0000
0000
0000
0000
0000
0000
0000
0010
0000
0000
0000
0000
0000
0000
0000
0001
0000
0000
0000
0000
0000
0000
0010
0000
0000
0001
0000
0000
0000
0000
0000
0100
0000
0000
0000
0000
0000
0000
0000
0000
0000
0000
0000
,
1000
0000
0000
0000
0000
0000
0000
0000
0000
0000
0000
0000
0010
0000
0000
0000
0000
0000
0000
0000
1000
0000
0000
0000
0000
0000
0000
0010
0000
0000
1000
0000
0000
0000
0000
0000
0100
0000
0000
0000
0000
0000
0000
0000
0000
0000
0000
0000
,
1000
0000
0000
0000
0000
0000
0000
0000
0000
0000
0000
0000
0100
0000
0000
0000
0000
0000
0000
0000
1000
0000
0000
0000
0000
0000
0000
0100
0000
0000
1000
0000
0000
0000
0000
0000
0010
0000
0000
0000
0000
0000
0000
0000
0000
0000
0000
0000
,
0001
0000
0000
0000
0000
0000
0000
0000
0000
0000
0000
0000
0100
0000
0000
0000
0000
0000
0000
0000
0001
0000
0000
0000
0000
0000
0000
0100
0000
0000
0001
0000
0000
0000
0000
0000
0010
0000
0000
0000
0000
0000
0000
0000
0000
0000
0000
0000
,
1000
0000
0000
0000
0000
0000
0000
0000
0000
0000
0000
0000
0100
0000
0000
0000
0000
0000
0000
0000
1000
0000
0000
0000
0000
0000
0000
0100
0000
0000
1000
0000
0000
0000
0000
0000
0010
0000
0000
0000
0000
0000
0000
0000
0000
0000
0000
0000
,
0001
0000
0000
0000
0000
0000
0000
0000
0000
0000
0000
0000
0100
0000
0000
0000
0000
0000
0000
0000
0001
0000
0000
0000
0000
0000
0000
0100
0000
0000
0001
0000
0000
0000
0000
0000
0010
0000
0000
0000
0000
0000
0000
0000
0000
0000
0000
0000
,
0000
0100
0011
0000
,
0000
0100
1010
0000
,
1001
0000
0000
0100
0001
0000
0000
0100
0001
0000
0000
0100
0001
0000
0010
0000
,
1100
0000
0000
0100
0001
0000
0000
0100
0001
0000
0000
0100
0001
0000
1000
0000
,
1001
0000
0000
0100
1000
0000
0000
0100
1000
0000
0000
0100
1000
0000
0010
0000
,
0101
0000
0000
0100
1000
0000
0000
0100
1000
0000
0000
0100
2000
0000
0000
0000
,
3100
0000
0000
0000
,
1100
0000
0000
0000
0000
0000
0000
0000
0000
0000
1000
0100
1000
0100
0000
0000
,
1001
0000
0000
0000;
